Magic Rabbit

This clip is a study project to practice single point tracking in Blender 2.65a.

Recorded a short clip of a young magician performing a magic trick using a Samsung HMX-H304 camcorder at 720/60p at "super fine" quality.

john@hostname ~/protected/projects/MagicRabbit/video $ ffprobe ./HDV_0452.MP4
ffprobe version N-46821-g8ad9b48 Copyright (c) 2007-2012 the FFmpeg developers
built on Nov 16 2012 23:37:25 with gcc 4.6 (Ubuntu/Linaro 4.6.3-1ubuntu5)
configuration:
libavutil 52. 7.100 / 52. 7.100
libavcodec 54. 71.100 / 54. 71.100
libavformat 54. 36.100 / 54. 36.100
libavdevice 54. 3.100 / 54. 3.100
libavfilter 3. 23.100 / 3. 23.100
libswscale 2. 1.102 / 2. 1.102
libswresample 0. 16.100 / 0. 16.100
Input #0, mov,mp4,m4a,3gp,3g2,mj2, from './HDV_0452.MP4':
Metadata:
major_brand : avc1
minor_version : 0
compatible_brands: avc1isom
creation_time : 2012-12-28 19:53:46
Duration: 00:00:44.51, start: 0.000000, bitrate: 12167 kb/s
Stream #0:0(eng): Video: h264 (Main) (avc1 / 0x31637661), yuv420p, 1280x720, 12010 kb/s, 59.94 fps, 59.94 tbr, 90k tbn, 180k tbc
Metadata:
creation_time : 2012-12-28 19:53:46
handler_name : HMX-H304
Stream #0:1(eng): Audio: aac (mp4a / 0x6134706D), 48000 Hz, stereo, s16, 127 kb/s
Metadata:
creation_time : 2012-12-28 19:53:46
handler_name : HMX-H304

Convert the video clip to raw targa frames.

cd frames
ffmpeg -i ../video/HDV_0452.MP4 -f image2 frame-%04d.tga

Unless otherwise stated, the content of this page is licensed under Creative Commons Attribution-ShareAlike 3.0 License